[Login] or [Signup]
Login
Username:
Password:
[Signup]
[Recover Account]


Poll


You must be logged in to view polls



Torrent Details For "Incredibles 2 (2018) HDRip - 720p - HQ Clean [Hindi + Telugu + Tamil + Eng(Original)] - [MovCr]"

Incredibles 2 (2018) HDRip - 720p - HQ Clean [Hindi + Telugu + Tamil + Eng(Original)] - [MovCr]

Download this torrent | Magnet Download
Health:
Seeds: 899
Leechers: 1,355
Completed: 1,227 
Last Checked: 22-10-2018 17:24:21
External Torrent
Update Stats
Download Magnet


Poster


iMDB
Imdb Picture Title: Incredibles 2
Year: 2018
Runtime: 118 minutes
Votes: 11407
Rating: 8.6/10
Language: English
Country: USA
All Genres: Animation, Action, Adventure, Comedy, Family, Sci-Fi
Plot Outline: Bob Parr (Mr. Incredible) is left to care for Jack-Jack while Helen (Elastigirl) is out saving the world.


Tagline: It's been too long, dahlings.
Director: Brad Bird
Writing By: Brad Bird,
Produced By: Nicole Paradis Grindle,John Lasseter,John Walker,
Music: Michael Giacchino
Cast:
Craig T. Nelson as Bob Parr / Mr. Incredible
Holly Hunter as Helen Parr / Elastigirl
Sarah Vowell as Violet Parr
Huck Milner as Dashiell Parr (Dash)
Catherine Keener as Evelyn Deavor
Eli Fucile as Jack-Jack Parr
Bob Odenkirk as Winston Deavor
Samuel L. Jackson as Lucius Best / Frozone
Michael Bird as Tony Rydinger
Sophia Bush as Voyd
Trailers:
Official Trailer
Winter Games TV Spot
Official Teaser Trailer


Watch-Free-HD     Download

Details
Name:Incredibles 2 (2018) HDRip - 720p - HQ Clean [Hindi + Telugu + Tamil + Eng(Original)] - [MovCr]
Description:
Our Site   https://movcr.cc


Incredibles 2 (2018) HDRip - 720p - HQ Clean [Hindi + Telugu + Tamil + Eng(Original)] - [MovCr]



 https://www.imdb.com/title/tt3606756/

 


General
Unique ID                                : 30520984518110696612083764261697045477 (0x16F620B79A6447BBDA7E6487036343E5)
Complete name                            : www.MovCr.cc - Incredibles 2 (2018) HDRip - 720p - HQ Clean [Hindi + Telugu + Tamil + Eng(Original)] - [MovCr].mkv
Format                                   : Matroska
Format version                           : Version 4 / Version 2
File size                                : 1.06 GiB
Duration                                 : 1 h 58 min
Overall bit rate mode                    : Variable
Overall bit rate                         : 1 283 kb/s
Movie name                               : www.MovCr.cc
Encoded date                             : UTC 2018-10-22 11:01:41
Writing application                      : mkvmerge v26.0.0 ('In The Game') 64-bit
Writing library                          : libebml v1.3.6 + libmatroska v1.4.9

Video
ID                                       : 1
Format                                   : AVC
Format/Info                              : Advanced Video Codec
Format profile                           : [email protected]
Format settings                          : CABAC / 4 Ref Frames
Format settings, CABAC                   : Yes
Format settings, RefFrames               : 4 frames
Codec ID                                 : V_MPEG4/ISO/AVC
Duration                                 : 1 h 58 min
Bit rate                                 : 826 kb/s
Width                                    : 1 280 pixels
Height                                   : 536 pixels
Display aspect ratio                     : 2.40:1
Frame rate mode                          : Constant
Frame rate                               : 29.970 (30000/1001) FPS
Color space                              : YUV
Chroma subsampling                       : 4:2:0
Bit depth                                : 8 bits
Scan type                                : Progressive
Bits/(Pixel*Frame)                       : 0.040
Stream size                              : 699 MiB (64%)
Title                                    : www.MovCr.cc
Writing library                          : x264 core 155 r2901 7d0ff22
Encoding settings                        : cabac=1 / ref=3 / deblock=1:0:0 / analyse=0x3:0x113 / me=hex / subme=7 / psy=1 / psy_rd=1.00:0.00 / mixed_ref=1 / me_range=16 / chroma_me=1 / trellis=1 / 8x8dct=1 / cqm=0 / deadzone=21,11 / fast_pskip=1 / chroma_qp_offset=-2 / threads=17 / lookahead_threads=2 / sliced_threads=0 / nr=0 / decimate=1 / interlaced=0 / bluray_compat=0 / constrained_intra=0 / bframes=3 / b_pyramid=2 / b_adapt=1 / b_bias=0 / direct=1 / weightb=1 / open_gop=0 / weightp=2 / keyint=300 / keyint_min=29 / scenecut=40 / intra_refresh=0 / rc_lookahead=40 / rc=2pass / mbtree=1 / bitrate=826 / ratetol=1.0 / qcomp=0.60 / qpmin=0 / qpmax=69 / qpstep=4 / cplxblur=20.0 / qblur=0.5 / ip_ratio=1.40 / aq=1:1.00
Language                                 : English
Default                                  : Yes
Forced                                   : No

Audio #1
ID                                       : 2
Format                                   : MPEG Audio
Format version                           : Version 1
Format profile                           : Layer 3
Format settings                          : Joint stereo / MS Stereo
Codec ID                                 : A_MPEG/L3
Codec ID/Hint                            : MP3
Duration                                 : 1 h 58 min
Bit rate mode                            : Variable
Bit rate                                 : 107 kb/s
Nominal bit rate                         : 128 kb/s
Channel(s)                               : 2 channels
Sampling rate                            : 44.1 kHz
Frame rate                               : 38.281 FPS (1152 SPF)
Compression mode                         : Lossy
Stream size                              : 90.7 MiB (8%)
Title                                    : www.MovCr.cc
Writing library                          : LAME3.99r
Encoding settings                        : -m j -V 4 -q 3 -lowpass 17 --abr 128
Language                                 : Telugu
Default                                  : No
Forced                                   : No

Audio #2
ID                                       : 3
Format                                   : MPEG Audio
Format version                           : Version 1
Format profile                           : Layer 3
Format settings                          : Joint stereo / MS Stereo
Codec ID                                 : A_MPEG/L3
Codec ID/Hint                            : MP3
Duration                                 : 1 h 58 min
Bit rate mode                            : Constant
Bit rate                                 : 128 kb/s
Channel(s)                               : 2 channels
Sampling rate                            : 48.0 kHz
Frame rate                               : 41.667 FPS (1152 SPF)
Compression mode                         : Lossy
Stream size                              : 108 MiB (10%)
Title                                    : www.MovCr.cc
Writing library                          : LAME3.99r
Encoding settings                        : -m j -V 4 -q 3 -lowpass 17 -b 128
Language                                 : Tamil
Default                                  : No
Forced                                   : No

Audio #3
ID                                       : 4
Format                                   : MPEG Audio
Format version                           : Version 1
Format profile                           : Layer 3
Format settings                          : Joint stereo / MS Stereo
Codec ID                                 : A_MPEG/L3
Codec ID/Hint                            : MP3
Duration                                 : 1 h 58 min
Bit rate mode                            : Variable
Bit rate                                 : 114 kb/s
Nominal bit rate                         : 128 kb/s
Channel(s)                               : 2 channels
Sampling rate                            : 44.1 kHz
Frame rate                               : 38.281 FPS (1152 SPF)
Compression mode                         : Lossy
Stream size                              : 96.9 MiB (9%)
Title                                    : www.MovCr.cc
Writing library                          : LAME3.99r
Encoding settings                        : -m j -V 4 -q 3 -lowpass 17 --abr 128
Language                                 : Hindi
Default                                  : Yes
Forced                                   : Yes

Audio #4
ID                                       : 5
Format                                   : MPEG Audio
Format version                           : Version 1
Format profile                           : Layer 3
Format settings                          : Joint stereo / MS Stereo
Codec ID                                 : A_MPEG/L3
Codec ID/Hint                            : MP3
Duration                                 : 1 h 58 min
Bit rate mode                            : Variable
Bit rate                                 : 104 kb/s
Nominal bit rate                         : 96.0 kb/s
Channel(s)                               : 2 channels
Sampling rate                            : 48.0 kHz
Frame rate                               : 41.667 FPS (1152 SPF)
Compression mode                         : Lossy
Stream size                              : 87.8 MiB (8%)
Title                                    : www.MovCr.cc
Writing library                          : LAME3.99r
Encoding settings                        : -m j -V 4 -q 3 -lowpass 15.1 --abr 96
Language                                 : English
Default                                  : No
Forced                                   : No





 
 
 
 
 
 
 
 
 

Category:Movies > Hollywood Dub
Lang:Hindi
Total Size:1.06 GB
Info Hash:a361d1a0f94c89373cfbbe0179849be1ff3ae8a2
Added By:MAZE
Date Added:22-10-2018 12:05:40
Views:1,132
Hits:168

Download Torrent

Ratings:Not Yet Rated (Log in to rate it)


Tracker:
udp://tracker.coppersurfer.tk:6969/announce


File List: 


Comments

No comments still posted

Powered by 10 Hamsters v2-svn -|- Page Generated In 1.695726 secs.
-|- RSS FEED
Theme By: Nikkbu